Видеорегистратор с gps с двумя камерами


Видеорегистратор с двумя камерами, GPS и G-sensor

Здравстуйте, форумчане, это мой первый обзор на сайте. Купил на Панде видеорегистратор «2.7» TFT LCD Dual Camera GPS G-Sensor TF Card HD Car Vehicle Blackbox DVR", далее ВР. Посылка шла 21 день со дня попадания на почту Сингапура, что в принципе немного, обычно около месяца, но это только мой опыт ожидания. Посылка пришла в стандартной картонной коробке, внутри коробка с ВР, обмотанная одним слоем пупырки и прижата взятыми на подарки чехлами для планшетников. В общем доехало до меня все в первозданном виде. Вот фото упаковки и содержимого (без присоски и кронштейна, висит в машине): Комплектация: 1) Регистратор 2) Зарядник от прикуривателя 3) GPS модуль 4) Кронштейн с присоской 5) Комплект двухстороннего скотча для GPS модуля 6) Мануал

Характеристики: 1) Две камеры — 1280х480 и 640х480 (внешняя и салонная), на салонной камере есть ИК-подсветка 4-мя диодами, вращаются на 270 градусов. 2) Память — поддержка карт от 4Gb до 32Gb 3) Запись звука 4) GPS-трекинг 5) G-сенсор 6) Экран LCD 2,7" Теперь подробнее. Сразу оговорюсь, это мой первый регистратор и сравнивать мне не с чем, так что это все мои личные впечатления о покупке. Итак, корпус выполнен вполне неплохо, зазоров и заусенец на швах нет, только при езде бренчат кнопки управления, самому их практически не слышно, только на записи. Установка. Что каксается держателя, кажется он коротковат, так как на записи он в вместе с присоской заслоняет 6-ую часть экрана. Но буду еще экспериментировать, может получиться поставить поудачней. Присоска держит отлично, даже в «расслабленном» положении надо помучаться что бы отлепить ее от стекла. В самом держателе есть небольшой люфт, затягивать сильнее побоялся, вдруг сломаю. Но при езде пока не болтается. Кнопки управления меню и включения находятся в нижней части ВР, разъемы питания, GPS, TF card и mini-HDMI в верней. Cмущает выход mini-HDMI, я так и не понял, есть он или нет. В характеристиках ничего о нем не сказано. Заглушку с него я снять так и не смог. Экран достаточно четкий, углы обзора приемлемые, есть возможность быстрого переключения режимов — изображение с обеих камер, по одной или совсем отключить. В меню можно настраивать каналы записи, опять же 1, 2 или вместе, дату и время, форматировать карточку памяти, включить или выключить звук кнопок и аудиозапись. Можно сменить язык (русский присутстсвует), включить или выключить дисплей, G-сенсор, и выставить частоту записи видео (50 или 60Гц). Также на лицевой панели есть аварийная кнопка, при нажатии которой дальнейшая запись будет заблокирована от перезаписи. Также работает G-сенсор, чувствительность которого регулируется. ВР автоматически запускается при включении зажигания и выключается при отключении. О качестве видео предлагаю судить вам самим, так как сравнить мне не с чем. Лично меня оно устраивает, номера машин читаемы, а большего и не надо. Одна минута занимает на карте около 70 Mb. При заливке на Youtube качество несколько пострадало, вот образец (слева салонная камера, справа — уличная):

Видео можно просматривать на самом ВР либо с флешки на компе. При открытии карточки на ней есть только файл встроенного плеера, с его помощью уже можно выбирать отрезки записи и сохранять на диск, заливать новые прошивки, просматривать показания G-сенсора. При подключенном GPS-модуле в плеере отображаются текущие координаты и скорость, также идет трекинг по Google Maps. По поводу емкости батареи пока сказать нечего, так как нет нужды снимать что то вне автомобиля, на сайте продавца и мануале никакой информации тоже нет.

Итого: + две камеры, за счет них расширение обзора, либо параллельная съемка улицы и салона + неплохое качество записи + наличие GPS и G-сенсора + ИК-подсветка (хотя она на всех ВР наверное уже есть)

— непонятки с mini-HDMI — дребезжание кнопок меню (тихо, не критично) — короткий держатель (может и получится установить нормально)

P.S. Повторюсь — это мой первый обзор, если чего то не хватает, просьба не ругать а задавать вопросы, обязательно отвечу. Спасибо.

mysku.ru

Автомобильный видеорегистратор с двумя камерами и GPS

Добрый день, уважаемые читатели. Сегодня обзор автомобильного видеорегистратора R300 напичканого функциями, но с слабоватым качеством записи. Так получилось, что ко мне для тестирования и написания обзора попали несколько видеорегистраторов. Начну с этого:

Посылка, упаковка

Устройство поставляется в такой коробке: Характеристики на коробке: Довольно заманчиво, внешний датчик GPS записывает время, дату, скорость и ведёт GPS журнал. Встроенный датчик столкновений и ударов (G-сенсор) записывает и сохраняет в отдельную нестираемую папку файлы экстремальных дорожных ситуаций (где были удары).

Технические характеристики: Дисплей: 2,7-дюймовый TFT ЖК-экран Две камеры наблюдения снаружи и внутри: Передняя камера: угол обзора 140 градусов. Задняя камера (салон): угол обзора 120 градусов. Разрешение видеозаписи:, 1280x480 (30 к/с) 2 канала, один канал 640x480 (30 к/с) Формат видео: AVI Память: MicroSD до до 64 Гб Фиксация даты и времени: Есть; накладывается на видеоизображение Автоматическое начало/остановка записи: Есть; при включении/выключении зажигания; обнаружении движения (датчик движения вкл.) Микрофон: Есть; можно отключить Возможность просмотра «на месте»: Есть; Источник питания: Li-ion аккумулятор / от прикуривателя Зарядка от USB: Есть; Датчик движения: Есть; аккумулятор: Встроенный литиево-полимерный аккумулятор 500 мАч Масса: 450 г. Язык: Английский / Традиционный китайский / Русский Системные требования: Windows 2000/XP/Vista/Windows 7, Mac OS X 10.3.6 выше.Официальный сайт

Комплектация:

Внешний вид регистратора: Передняя стенка корпуса металлизированная, камера может регулироваться, как пушка у танка, на +- 20 градусов. Сзади кнопки и камера, которая пишет салон. Размер экрана 6х3,5 см. Разъемы под заглушкой: ТВ выход и зарядка организованы через мини usb. Есть кнопка сброса, которую нужно нажимать чем то острым.

Зарядное устройство: 12-24 В: Своего аккумулятора хватило на пол часа. Внешняя GPS антенна: Разъем похож на компьютерные от БП. Кронштейн с присоской для крепления на ветровое стекло авто: Комплектная инструкция на китайском, английском и русский автоперевод. Здесь инструкция на устройство близнец с нормальным переводом.

Устанавливаем в авто: Присоска держит очень крепко, сам кронштейн пластиковый, хлипковат. Меню устройства: Чувствительность датчика удара настраивается. В работе: Есть возможность отключить звук и выбрать режим отображения с камер: две камеры одновременно или дорога/салон. Как флешка к компьютеру регистратор не подключается, необходимо использовать кардридер. Запись роликов идет на карту микро SD в закрытую область в каком-то своём формате. Доступ к файлам возможен только с компьютера через свой софт, который регистратор копирует на карту.

Софт регистратора:Программа Настройки: GPS данные пишет в отдельный файл KML, а в программе показывает место на карте, скорость и координаты.Пример файла kml

Описание формата KML

Файл в формате KML был основан на стандарте XML, его назначение заключается в представлении геопространственных данных в таких утилитах как Google Earth (Гугл Планета Земля), а также Google Maps как для мобильных устройств, так и для компьютеров.

Расширение .kml может содержать картографические данные в виде разнообразных многоугольников, точек, изображений, линий и отметок. В некоторых случаях хранят ссылки на определенные объекты, связанные с форматами KML и KMZ, такие стандарты могут располагаться в рамках сети Всемирной паутины, они задают не только условия, но и регулярность загрузки, а также отображения информационных данных от различных внешних ресурсов.

Чтобы создать рассматриваемый формат, достаточно воспользоваться программным обеспечением Google Планета Земля, кроме того, его можно сформировать и при помощи различных XML-редакторов и даже в утилитах для работы с текстом. Зачастую KML поставляется в архивах ZIP и обладают расширением KMZ.

Открыть файл KML можно в рамках программы Google Earth, а также при помощи приложений Blender, Merkaartor и так далее. Стандарт довольно распространен в большинстве популярных операционных систем, таких как Microsoft Windows, Mac OS и Linux. Для владельцев мобильных устройств, работающих на платформах iOS и Android, предполагается запуск геопространственных данных в онлайн-приложении Google Maps.

Имеется возможность конвертирования в распространенный формат GPX, для этого достаточно воспользоваться программным комплексом GPS Visualizer или GPSBabel.

Пример фото: Ролики:

Сохранять из программы можно ролик любой длинны в пределах одной поездки. И всегда сохраняется две камеры одновременно. Звук пишет неплохо:

Ночью без подсветки все печально:

Параметры сохраненного файла

Format: AVI Format/Info: Audio Video Interleave File size: 123 MiB Duration: 1 min 32 s Overall bit rate: 11.2 Mb/s Format: JPEG Codec ID: MJPG Duration: 1 min 32 s Bit rate: 13.0 Mb/s Width: 1 280 pixels Height: 480 pixels Display aspect ratio: 2.667 Frame rate: 30.000 FPS Color space: YUV Chroma subsampling: 4:2:2 Bit depth: 8 bits Scan type: Progressive Compression mode: Lossy Bits/(Pixel*Frame): 0.707 Stream size: 143 MiB Audio ID: 1 Format: PCM Format settings, Endianness: Little Format settings, Sign: Signed Codec ID: 1 Duration: 1 min 32 s Bit rate mode: Constant Bit rate: 256 kb/s Channel(s): 1 channel Sampling rate: 16.2 kHz Bit depth: 16 bits Stream size: 2.84 MiB (2%) Alignment: Aligned on interleaves Interleave, duration: 1000 ms (30.00 video frames)

Оригиналы роликов.

Обидно конечно, что камера 0,3 Мп, в 2017 году такое уже устарело. Но датчик удара и GPS в логах это интересные решения.

Есть 12% скидка, купон: BgAuMotor

Спасибо за внимание! Удачных покупок!

Товар предоставлен для написания обзора магазином. Обзор опубликован в соответствии с п.18 Правил сайта.

mysku.ru

Видеорегистраторы с двумя камерами и GPS – краткий обзор

Думается, что буквально каждый искушённый в вопросе видеорегистраторов потребитель, анализируя рынок подобных устройств, «натыкался» на девайсы основными преимуществами которых являются две независимые камеры, а порой модуль GPS и G-сенсор.

Именно о таких устройствах и пойдет речь в данной статье. На этот раз мы рассмотрим несколько абсолютно разных девайса, обладающих отличным друг от друга дизайном, техническими характеристиками и, конечно же, рыночной ценой. Итак, рассмотрим 3 модели устройств, которые можно объединить под формулировкой: видеорегистратор с двумя камерами и GPS.

Globex X6000

Данный видеорегистратор реализован в корпусе цилиндрической формы, на двух краях которого расположились две камеры (одна из которых поворачивается на 180°). Они обеспечивают совокупное разрешение видеозаписи 1280 на 480 точек, а по центру – достаточно качественный 2-дюймовый цветной дисплей, под которым находятся органы управления устройством.

Как понятно, производитель оснастил регистратор G-сенсором (датчиком движения) и GPS-модулем, чем максимально расширил функциональность устройства. В общем, модель получилась достаточно качественной как с позиции конструкции, так и с имеющегося функционала, при этом купить её можно за 4.5÷4.8 тысяч рублей.

Cansonic FDV-606

Следующим в нашем обзоре фигурирует регистратор Cansonic FDV-606. Он также имеет в своем арсенале две 5-мегапиксельный камеры, которые поворачиваются на 180° и обеспечивают видеосъемку в НD-формате, с разрешением 1280 на 720 пикселей. Производитель снабдил девайс следующим набором характеристик:

  • 2.7-дюймовый LCD TFT-дисплей;
  • оптика камер с 140-градусным углом обзора;
  • коннект разъемами: USB, HDMI, АV, аудио;
  • ИК-подсветка;
  • имеется G-сенсор;
  • GPS-модуль;
  • ГЛОНАСС;
  • модуль детектора движения в кадре.

В целом гаджет вызывает лишь положительные эмоции при его использовании и является достойным представителем класса устройств – видеорегистратор с двумя камерами и GPS, при этом он обойдется потребителю в сумму 8.7÷8.9 тысяч рублей.

Urive Albatross HD/GPS

В заключение обзора хотелось бы рассказать о, пожалуй, самом симпатичном на рынке регистраторе с двумя камерами и GPS, произведенном в Корее. Изумительный дизайн, качественная сборка с безупречной подгонкой деталей, этот регистратор готов удовлетворить самого требовательного и взыскательного потребителя.

Бывает, возникает мнение о том, что видеорегистратор с двумя камерами с GPS, может работать не корректно после выхода из строя. Так как карты памяти имеют особую архитектуру. Но это совершенно не так, а можно взять любую другу, отформатировать её, к примеру на Горбушки или скачать подробную инструкцию в Интернет.

Его 3-мегапиксельная фронтальная камера HD-формата, снабженная самсунговской высококачественной оптикой с углом обзора 140°, позволяет осуществлять видеофиксацию с разрешением 1280 на 720 точек, со скоростью записи 30к/с. По аналогии с видеорегистратором DVR DM-600 гаджет имеет возможность подключения выносной 1.3-мегапиксельной камеры с углом обзора оптики 120°. Данная камера может быть применена как для контроля ситуации на дороге позади авто, так и использована для фиксации всего происходящего в салоне машины.

Это устройство также снабжено:

  1. GPS-модулем;
  2. 3G-сенсором;
  3. 2.4-дюймовым TOUCH-дисплеем;
  4. круглосуточным режимом парковки и многим другим.

При этом стоит девайс порядка 11.5÷12.7 тысяч рублей, что выгодно его отличает от указанной модели DVR DM-600.

Для полной картины об одной из выше описанных моделей посмотри видеообзор девайса Cansonic FDV-606:

А если данная статья помогла тебе определиться с перспективной покупкой видеорегистратора – нажми кнопку «Мне нравится».

planshetcomp.ru

Автомобильный видеорегистратор с двумя камерами и GPS

Добрый день, уважаемые читатели. Сегодня обзор автомобильного видеорегистратора R300 напичканого функциями, но с слабоватым качеством записи. Так получилось, что ко мне для тестирования и написания обзора попали несколько видеорегистраторов. Начну с этого:

Посылка, упаковка

Устройство поставляется в такой коробке: Характеристики на коробке: Довольно заманчиво, внешний датчик GPS записывает время, дату, скорость и ведёт GPS журнал. Встроенный датчик столкновений и ударов (G-сенсор) записывает и сохраняет в отдельную нестираемую папку файлы экстремальных дорожных ситуаций (где были удары).

Технические характеристики:Дисплей: 2,7-дюймовый TFT ЖК-экранДве камеры наблюдения снаружи и внутри:Передняя камера: угол обзора 140 градусов.Задняя камера (салон): угол обзора 120 градусов.Разрешение видеозаписи:, 1280x480 (30 к/с) 2 канала, один канал 640x480 (30 к/с)Формат видео: AVIПамять: MicroSD до до 64 ГбФиксация даты и времени: Есть; накладывается на видеоизображениеАвтоматическое начало/остановка записи: Есть; при включении/выключении зажигания; обнаружении движения (датчик движения вкл.)Микрофон: Есть; можно отключитьВозможность просмотра «на месте»: Есть;Источник питания: Li-ion аккумулятор / от прикуривателяЗарядка от USB: Есть;Датчик движения: Есть;аккумулятор: Встроенный литиево-полимерный аккумулятор 500 мАчМасса: 450 г.Язык: Английский / Традиционный китайский / РусскийСистемные требования: Windows 2000/XP/Vista/Windows 7, Mac OS X 10.3.6 выше.Официальный сайт

Комплектация:

Внешний вид регистратора:Передняя стенка корпуса металлизированная, камера может регулироваться, как пушка у танка, на +- 20 градусов.Сзади кнопки и камера, которая пишет салон. Размер экрана 6х3,5 см.Разъемы под заглушкой:ТВ выход и зарядка организованы через мини usb.Есть кнопка сброса, которую нужно нажимать чем то острым.

Зарядное устройство: 12-24 В:Своего аккумулятора хватило на пол часа.Внешняя GPS антенна:Разъем похож на компьютерные от БП.Кронштейн с присоской для крепления на ветровое стекло авто:Комплектная инструкция на китайском, английском и русский автоперевод. Здесь инструкция на устройство близнец с нормальным переводом.

Устанавливаем в авто:Присоска держит очень крепко, сам кронштейн пластиковый, хлипковат.Меню устройства:Чувствительность датчика удара настраивается.В работе:Есть возможность отключить звук и выбрать режим отображения с камер: две камеры одновременно или дорога/салон.Как флешка к компьютеру регистратор не подключается, необходимо использовать кардридер.Запись роликов идет на карту микро SD в закрытую область в каком-то своём формате. Доступ к файлам возможен только с компьютера через свой софт, который регистратор копирует на карту.

Софт регистратора:ПрограммаНастройки:GPS данные пишет в отдельный файл KML, а в программе показывает место на карте, скорость и координаты.Пример файла kml

Описание формата KML

Файл в формате KML был основан на стандарте XML, его назначение заключается в представлении геопространственных данных в таких утилитах как Google Earth (Гугл Планета Земля), а также Google Maps как для мобильных устройств, так и для компьютеров.

Расширение .kml может содержать картографические данные в виде разнообразных многоугольников, точек, изображений, линий и отметок. В некоторых случаях хранят ссылки на определенные объекты, связанные с форматами KML и KMZ, такие стандарты могут располагаться в рамках сети Всемирной паутины, они задают не только условия, но и регулярность загрузки, а также отображения информационных данных от различных внешних ресурсов.

Чтобы создать рассматриваемый формат, достаточно воспользоваться программным обеспечением Google Планета Земля, кроме того, его можно сформировать и при помощи различных XML-редакторов и даже в утилитах для работы с текстом. Зачастую KML поставляется в архивах ZIP и обладают расширением KMZ.

Открыть файл KML можно в рамках программы Google Earth, а также при помощи приложений Blender, Merkaartor и так далее. Стандарт довольно распространен в большинстве популярных операционных систем, таких как Microsoft Windows, Mac OS и Linux. Для владельцев мобильных устройств, работающих на платформах iOS и Android, предполагается запуск геопространственных данных в онлайн-приложении Google Maps.

Имеется возможность конвертирования в распространенный формат GPX, для этого достаточно воспользоваться программным комплексом GPS Visualizer или GPSBabel.

Пример фото:Ролики:

Сохранять из программы можно ролик любой длинны в пределах одной поездки. И всегда сохраняется две камеры одновременно. Звук пишет неплохо:

Ночью без подсветки все печально:

Параметры сохраненного файла

Format: AVIFormat/Info: Audio Video InterleaveFile size: 123 MiBDuration: 1 min 32 sOverall bit rate: 11.2 Mb/sFormat: JPEGCodec ID: MJPGDuration: 1 min 32 sBit rate: 13.0 Mb/sWidth: 1 280 pixelsHeight: 480 pixelsDisplay aspect ratio: 2.667Frame rate: 30.000 FPSColor space: YUVChroma subsampling: 4:2:2Bit depth: 8 bitsScan type: ProgressiveCompression mode: LossyBits/(Pixel*Frame): 0.707Stream size: 143 MiBAudioID: 1Format: PCMFormat settings, Endianness: LittleFormat settings, Sign: SignedCodec ID: 1Duration: 1 min 32 sBit rate mode: ConstantBit rate: 256 kb/sChannel(s): 1 channelSampling rate: 16.2 kHzBit depth: 16 bitsStream size: 2.84 MiB (2%)Alignment: Aligned on interleavesInterleave, duration: 1000 ms (30.00 video frames)

Оригиналы роликов.

Обидно конечно, что камера 0,3 Мп, в 2017 году такое уже устарело. Но датчик удара и GPS в логах это интересные решения.

Есть 12% скидка, купон: BgAuMotor

Спасибо за внимание! Удачных покупок!

Товар предоставлен для написания обзора магазином. Обзор опубликован в соответствии с п.18 Правил сайта.

musky.me

Автомобильный видеорегистратор с двумя камерами и GPS

Добрый день, уважаемые читатели. Сегодня обзор автомобильного видеорегистратора R300 напичканого функциями, но с слабоватым качеством записи. Так получилось, что ко мне для тестирования и написания обзора попали несколько видеорегистраторов. Начну с этого:

Посылка, упаковка

Устройство поставляется в такой коробке: Характеристики на коробке: Довольно заманчиво, внешний датчик GPS записывает время, дату, скорость и ведёт GPS журнал. Встроенный датчик столкновений и ударов (G-сенсор) записывает и сохраняет в отдельную нестираемую папку файлы экстремальных дорожных ситуаций (где были удары).

Технические характеристики:Дисплей: 2,7-дюймовый TFT ЖК-экранДве камеры наблюдения снаружи и внутри:Передняя камера: угол обзора 140 градусов.Задняя камера (салон): угол обзора 120 градусов.Разрешение видеозаписи:, 1280x480 (30 к/с) 2 канала, один канал 640x480 (30 к/с)Формат видео: AVIПамять: MicroSD до до 64 ГбФиксация даты и времени: Есть; накладывается на видеоизображениеАвтоматическое начало/остановка записи: Есть; при включении/выключении зажигания; обнаружении движения (датчик движения вкл.)Микрофон: Есть; можно отключитьВозможность просмотра «на месте»: Есть;Источник питания: Li-ion аккумулятор / от прикуривателяЗарядка от USB: Есть;Датчик движения: Есть;аккумулятор: Встроенный литиево-полимерный аккумулятор 500 мАчМасса: 450 г.Язык: Английский / Традиционный китайский / РусскийСистемные требования: Windows 2000/XP/Vista/Windows 7, Mac OS X 10.3.6 выше.Официальный сайт

Комплектация:

Внешний вид регистратора:Передняя стенка корпуса металлизированная, камера может регулироваться, как пушка у танка, на +- 20 градусов.Сзади кнопки и камера, которая пишет салон. Размер экрана 6х3,5 см.Разъемы под заглушкой:ТВ выход и зарядка организованы через мини usb.Есть кнопка сброса, которую нужно нажимать чем то острым.

Зарядное устройство: 12-24 В:Своего аккумулятора хватило на пол часа.Внешняя GPS антенна:Разъем похож на компьютерные от БП.Кронштейн с присоской для крепления на ветровое стекло авто:Комплектная инструкция на китайском, английском и русский автоперевод. Здесь инструкция на устройство близнец с нормальным переводом.

Устанавливаем в авто:Присоска держит очень крепко, сам кронштейн пластиковый, хлипковат.Меню устройства:Чувствительность датчика удара настраивается.В работе:Есть возможность отключить звук и выбрать режим отображения с камер: две камеры одновременно или дорога/салон.Как флешка к компьютеру регистратор не подключается, необходимо использовать кардридер.Запись роликов идет на карту микро SD в закрытую область в каком-то своём формате. Доступ к файлам возможен только с компьютера через свой софт, который регистратор копирует на карту.

Софт регистратора:ПрограммаНастройки:GPS данные пишет в отдельный файл KML, а в программе показывает место на карте, скорость и координаты.Пример файла kml

Описание формата KML

Файл в формате KML был основан на стандарте XML, его назначение заключается в представлении геопространственных данных в таких утилитах как Google Earth (Гугл Планета Земля), а также Google Maps как для мобильных устройств, так и для компьютеров.

Расширение .kml может содержать картографические данные в виде разнообразных многоугольников, точек, изображений, линий и отметок. В некоторых случаях хранят ссылки на определенные объекты, связанные с форматами KML и KMZ, такие стандарты могут располагаться в рамках сети Всемирной паутины, они задают не только условия, но и регулярность загрузки, а также отображения информационных данных от различных внешних ресурсов.

Чтобы создать рассматриваемый формат, достаточно воспользоваться программным обеспечением Google Планета Земля, кроме того, его можно сформировать и при помощи различных XML-редакторов и даже в утилитах для работы с текстом. Зачастую KML поставляется в архивах ZIP и обладают расширением KMZ.

Открыть файл KML можно в рамках программы Google Earth, а также при помощи приложений Blender, Merkaartor и так далее. Стандарт довольно распространен в большинстве популярных операционных систем, таких как Microsoft Windows, Mac OS и Linux. Для владельцев мобильных устройств, работающих на платформах iOS и Android, предполагается запуск геопространственных данных в онлайн-приложении Google Maps.

Имеется возможность конвертирования в распространенный формат GPX, для этого достаточно воспользоваться программным комплексом GPS Visualizer или GPSBabel.

Пример фото:Ролики:

Сохранять из программы можно ролик любой длинны в пределах одной поездки. И всегда сохраняется две камеры одновременно. Звук пишет неплохо:

Ночью без подсветки все печально:

Параметры сохраненного файла

Format: AVIFormat/Info: Audio Video InterleaveFile size: 123 MiBDuration: 1 min 32 sOverall bit rate: 11.2 Mb/sFormat: JPEGCodec ID: MJPGDuration: 1 min 32 sBit rate: 13.0 Mb/sWidth: 1 280 pixelsHeight: 480 pixelsDisplay aspect ratio: 2.667Frame rate: 30.000 FPSColor space: YUVChroma subsampling: 4:2:2Bit depth: 8 bitsScan type: ProgressiveCompression mode: LossyBits/(Pixel*Frame): 0.707Stream size: 143 MiBAudioID: 1Format: PCMFormat settings, Endianness: LittleFormat settings, Sign: SignedCodec ID: 1Duration: 1 min 32 sBit rate mode: ConstantBit rate: 256 kb/sChannel(s): 1 channelSampling rate: 16.2 kHzBit depth: 16 bitsStream size: 2.84 MiB (2%)Alignment: Aligned on interleavesInterleave, duration: 1000 ms (30.00 video frames)

Оригиналы роликов.

Обидно конечно, что камера 0,3 Мп, в 2017 году такое уже устарело. Но датчик удара и GPS в логах это интересные решения.

Есть 12% скидка, купон: BgAuMotor

Спасибо за внимание! Удачных покупок!

Товар предоставлен для написания обзора магазином. Обзор опубликован в соответствии с п.18 Правил сайта.

mysku.me


Смотрите также